rarbg torrents
Catalog Top 10

Home
Movies
XXX
TV Shows
Games
Music
Anime
Apps
Doc
Other
Non XXX

Wanted (2008)Mp-4-Blu-Ray Rip-1080p-6ch-DSD

Torrent: Wanted (2008)Mp-4-Blu-Ray Rip-1080p-6ch-DSD
VPN:
Downloading torrents is getting riskier every day. Use a VPN to make yourself hidden while downloading torrents.
By using a VPN , your ISP and Government Agencies will not be able to spy on you, neither would they be able to track your online activity!
Poster:
Wanted (2008)Mp-4-Blu-Ray Rip-1080p-6ch-DSD
Others:
Codec Name S. L. Size

 

Description:






Wanted (2008)
1080p BluRay-Rip
Hash Code:
3BC8FDAD9BEF1017E43A99D3DD4AA60899EC02FF










^Tap on image above for IMDb Info for this film^



General
Complete name : F:\handbrake\Wanted\Wanted.Theatrical-1.m4v
Format : MPEG-4
Format profile : Base Media / Version 2
Codec ID : mp42 (isom/iso2/avc1/mp41)
File size : 3.80 GiB
Duration : 1 h 50 min
Overall bit rate : 4 941 kb/s
Movie name : Wanted
Performer : Timur Bekmambetov
Genre : Action & Thriller & Crime
Description : Doormat Wesley Gibson discovers that his recently murdered father – who Wesley never knew – belonged to a secret guild of assassins. After a leather-clad sexpot drafts Wesley into the society, he hones his innate killing skills and turns avenger.
Recorded date : 2008
Encoded date : UTC 2021-01-19 23:39:03
Tagged date : UTC 2021-01-19 23:39:03
Writing application : HandBrake 1.3.3 2020061300
LongDescription : Doormat Wesley Gibson discovers that his recently murdered father – who Wesley never knew – belonged to a secret guild of assassins. After a leather-clad sexpot drafts Wesley into the society, he hones his innate killing skills and turns avenger.

Video
ID : 1
Format : AVC
Format/Info : Advanced Video Codec
Format profile : [email protected]
Format settings : CABAC / 4 Ref Frames
Format settings, CABAC : Yes
Format settings, Reference frames : 4 frames
Codec ID : avc1
Codec ID/Info : Advanced Video Coding
Duration : 1 h 50 min
Bit rate : 4 551 kb/s
Width : 1 920 pixels
Height : 816 pixels
Display aspect ratio : 2.35:1
Frame rate mode : Variable
Frame rate : 23.976 FPS
Minimum frame rate : 11.987 FPS
Maximum frame rate : 23.981 FPS
Color space : YUV
Chroma subsampling : 4:2:0
Bit depth : 8 bits
Scan type : Progressive
Bits/(Pixel*Frame) : 0.121
Stream size : 3.50 GiB (92%)
Writing library : x264 core 157 r2935 545de2f
Encoding settings : cabac=1 / ref=2 / deblock=1:0:0 / analyse=0x1:0x111 / me=hex / subme=6 / psy=1 / psy_rd=1.00:0.00 / mixed_ref=1 / me_range=16 / chroma_me=1 / trellis=1 / 8x8dct=0 / cqm=0 / deadzone=21,11 / fast_pskip=1 / chroma_qp_offset=-2 / threads=3 / lookahead_threads=1 / sliced_threads=0 / nr=0 / decimate=1 / interlaced=0 / bluray_compat=0 / constrained_intra=0 / bframes=3 / b_pyramid=2 / b_adapt=1 / b_bias=0 / direct=1 / weightb=1 / open_gop=0 / weightp=1 / keyint=240 / keyint_min=24 / scenecut=40 / intra_refresh=0 / rc_lookahead=30 / rc=crf / mbtree=1 / crf=22.0 / qcomp=0.60 / qpmin=0 / qpmax=69 / qpstep=4 / vbv_maxrate=20000 / vbv_bufsize=25000 / crf_max=0.0 / nal_hrd=none / filler=0 / ip_ratio=1.40 / aq=1:1.00
Encoded date : UTC 2021-01-19 23:39:03
Tagged date : UTC 2021-01-19 23:39:03
Color range : Limited
Color primaries : BT.709
Transfer characteristics : BT.709
Matrix coefficients : BT.709
Menus : 3
Codec configuration box : avcC

Audio
ID : 2
Format : AAC LC
Format/Info : Advanced Audio Codec Low Complexity
Codec ID : mp4a-40-2
Duration : 1 h 50 min
Bit rate mode : Constant
Bit rate : 384 kb/s
Channel(s) : 6 channels
Channel layout : C L R Ls Rs LFE
Sampling rate : 48.0 kHz
Frame rate : 46.875 FPS (1024 SPF)
Compression mode : Lossy
Stream size : 302 MiB (8%)
Title : English (dts 5.1)
Language : English
Default : Yes
Alternate group : 1
Encoded date : UTC 2021-01-19 23:39:03
Tagged date : UTC 2021-01-19 23:39:03

B)

Downloads: 653
Category: Movies/HD
Size: 3.8 GB
Show Files »
files
Added: 2021-01-24 15:44:16
Language: English
Title: Wanted
Rating: 64
Genres: ActionCrimeThriller
Year: 2008
Summery: Doormat Wesley Gibson discovers that his recently murdered father -- who Wesley never knew -- belonged to a secret guild of assassins. After a leather-clad sexpot drafts Wesley into the society, he hones his innate killing skills and turns avenger.
Peers: Seeders : 46 , Leechers : 5
Tags: Action Crime Thriller 
Release name: Wanted (2008)Mp-4-Blu-Ray Rip-1080p-6ch-DSD
Trackers:

udp://tracker.openbittorrent.com:80/announce

udp://tracker.opentrackr.org:1337/announce

udp://tracker.coppersurfer.tk:6969/announce

udp://9.rarbg.to:2710/announce





By using this site you agree to and accept our user agreement. If you havent read the user agreement please do so here