rarbg torrents
Catalog Top 10

Home
Movies
XXX
TV Shows
Games
Music
Anime
Apps
Doc
Other
Non XXX

Shameless S08E12 Sleepwalking 1080p DD5.1 - 2.0 x264 Phun Psyz

Torrent: Shameless S08E12 Sleepwalking 1080p DD5.1 - 2.0 x264 Phun Psyz
VPN:
Downloading torrents is getting riskier every day. Use a VPN to make yourself hidden while downloading torrents.
By using a VPN , your ISP and Government Agencies will not be able to spy on you, neither would they be able to track your online activity!
Episode Info: 2018-01-29 8E12 Sleepwalking
Poster:
Shameless S08E12 Sleepwalking 1080p DD5.1 - 2.0 x264 Phun Psyz
Others:
Codec Name S. L. Size

 

Description:

www.imdb.com/title/tt6360834/?ref_=ttep_ep12

Description: N/A

Source: NTb (Amzn) (3.44 GiB)



Format : MPEG-4
Format profile : Base Media / Version 2
Codec ID : mp42 (isom/iso2/avc1/mp41)
File size : 925 MiB
Duration : 57 min 28 s
Overall bit rate mode : Variable
Overall bit rate : 2 249 kb/s

Video
ID : 1
Format : AVC
Format/Info : Advanced Video Codec
Format profile : [email protected]
Format settings : CABAC / 8 Ref Frames
Format settings, CABAC : Yes
Format settings, RefFrames : 8 frames
Codec ID : avc1
Codec ID/Info : Advanced Video Coding
Duration : 57 min 28 s
Bit rate : 1 762 kb/s
Width : 1 920 pixels
Height : 1 080 pixels
Display aspect ratio : 16:9
Frame rate mode : Variable
Frame rate : 23.976 (24000/1001) FPS
Minimum frame rate : 23.974 FPS
Maximum frame rate : 23.981 FPS
Color space : YUV
Chroma subsampling : 4:2:0
Bit depth : 8 bits
Scan type : Progressive
Bits/(Pixel*Frame) : 0.035
Stream size : 724 MiB (78%)
Writing library : x264 core 148 r2708 86b7198

Audio #1
ID : 2
Format : AC-3
Format/Info : Audio Coding 3
Format settings, Endianness : Big
Codec ID : ac-3
Duration : 57 min 28 s
Bit rate mode : Constant
Bit rate : 320 kb/s
Channel(s) : 6 channels
Channel positions : Front: L C R, Side: L R, LFE
Sampling rate : 48.0 kHz
Frame rate : 31.250 FPS (1536 SPF)
Bit depth : 16 bits
Compression mode : Lossy
Stream size : 132 MiB (14%)
Title : Surround / Surround
Language : English
Service kind : Complete Main
Default : Yes

Audio #2
ID : 3
Format : AAC
Format/Info : Advanced Audio Codec
Format profile : LC
Codec ID : mp4a-40-2
Duration : 57 min 28 s
Bit rate mode : Variable
Bit rate : 160 kb/s
Channel(s) : 2 channels
Channel positions : Front: L R
Sampling rate : 48.0 kHz
Frame rate : 46.875 FPS (1024 SPF)
Compression mode : Lossy
Stream size : 65.8 MiB (7%)
Title : Stereo / Stereo
Language : English

Text #1
ID : 4
Format : Timed Text
Muxing mode : sbtl
Codec ID : tx3g
Duration : 56 min 55 s
Bit rate mode : Variable
Bit rate : 77 b/s
Stream size : 32.0 KiB (0%)
Language : English
Default : Yes
Forced : No

Text #2
ID : 5
Format : Timed Text
Muxing mode : sbtl
Codec ID : tx3g
Duration : 56 min 55 s
Bit rate mode : Variable
Bit rate : 85 b/s
Stream size : 35.5 KiB (0%)
Language : English
Default : No
Forced : No

Menu
ID : 6
Codec ID : text
Duration : 57 min 28 s
Language : English
Menu For : 1,3,4,5
00:00:00.000 : Studio Logo
00:00:05.005 : Previously On
00:01:37.180 : Opening Credits, Title Sequence
00:02:52.214 : Lip goes to work
00:04:34.149 : Kassidi prepares breakfast for Frank and Liam
00:07:22.067 : Kevin, V and Svetlana tie Freelania in their house
00:09:36.034 : Trevor goes to Gallagher's house in search of Ian
00:11:31.024 : Trevor and Fiona go to the accident scene
00:11:58.009 : Xan gives name to Lip's bike
00:14:21.152 : Carl takes his belongings to the hotel
00:15:15.081 : Kevin and V meet Zlata at the airport
00:15:48.030 : Advocate gives an advice to Fiona
00:17:35.137 : Liam takes pictures in Dylan's house
00:19:14.028 : Derek gives an offer to Debbie
00:20:22.012 : V and Kevin take Zlata to their bar
00:21:48.098 : Kassidi gives a gift to Carl
00:23:33.120 : Sierra and Charlie fight with each other
00:26:05.147 : Svetlana gets ready for the wedding
00:27:54.047 : Frank tries to convince Liam to rob Dylan's father
00:29:28.058 : Trevor asks Ian to surrender
00:31:38.146 : Carl asks help from Debbie
00:32:51.052 : Sierra kisses Lip
00:34:27.148 : Fiona tells Ford that she wants to leave the city
00:37:16.067 : Kassidi discusses her future plans with Carl
00:38:52.038 : Carl leaves his home
00:40:08.239 : Fiona goes to meet Paulie
00:40:34.057 : Ian comes up with a plan
00:41:02.043 : Liam leaves for the trip
00:41:28.069 : Rupert inquires about Kevin
00:42:33.009 : Fiona gives an offer to Trina and Rodney
00:45:48.162 : Lip asks Sierra to give a chance to Charlie
00:47:56.040 : Ian and his group get arrested
00:49:35.014 : Svetlana gets married
00:50:40.120 : Liam denies to answer Frank's call
00:52:53.128 : Lip asks Xan if she will come with him
00:54:53.081 : Carl leaves Kassidi
00:55:22.152 : Clark takes Bic and Ian into custody
00:55:46.134 : Lip goes for a ride on his new bike
00:56:25.007 : End Credits
Bit rate mode : VBR

Downloads: 470
Category: TV/HD
Size: 924.6 MB
Show Files »
files
Added: 2018-02-20 18:41:58
Language: English
Title: Shameless
Rating: 90
Network: Showtime
Genres: ComedyDrama
Runtime: 60
Year: 2011
Summery: Chicagoan Frank Gallagher is the proud single dad of six smart, industrious, independent kids, who without him would be... perhaps better off. When Frank's not at the bar spending what little money they have, he's passed out on the floor. But the kids have found ways to grow up in spite of him. They may not be like any family you know, but they make no apologies for being exactly who they are. Liam out-Gallaghers Frank, Lip works to convince Tami to stay in Chicago with their baby, Debbie turns over a new romantic leaf and Kev’s new business takes off, but V wonders where the money is going. Frank finds a cushy place to make his new home. Lip gets cold feet when Tami moves forward with a plan for their future. Ian sees a new side of Mickey, and Debbie’s love triangle reaches a breaking point. An incident in the Tamietti family presents Lip and Tami with a new opportunity. Faye’s betrayal lands Frank in front of a judge. Mickey’s antics drive Ian to online dating. Carl makes an unexpected discovery at his new job. Frank goes back in time to uncover his connection to Faye, as Debbie’s day with Claudia’s daughter goes awry. Carl takes extreme measures to toughen up his new group of cadets. Ian struggles to connect with Mickey after their blowup. Debbie weighs the pros and cons of a new career path. Frank uncovers the truth about Faye’s living situation. A miscommunication between Ian and Mickey has disastrous consequences and Lip and Tami disagree over who should be taking care of Fred.
Peers: Seeders : 6 , Leechers : 3
Tags: Shameless S08E12 1080p x264 Phun Psyz 
Release name: Shameless S08E12 Sleepwalking 1080p DD5.1 - 2.0 x264 Phun Psyz
Trackers:

udp://tracker.pirateparty.gr:6969/announce

udp://tracker.leechers-paradise.org:6969/announce

udp://tracker.internetwarriors.net:1337/announce

udp://inferno.demonoid.pw:3391/announce

http://explodie.org:6969/announce

http://mgtracker.org:6969/announce

udp://tracker.coppersurfer.tk:6969/announce

udp://public.popcorn-tracker.org:6969/announce

http://tracker.opentrackr.org/announce

udp://tracker.tiny-vps.com:6969/announce





By using this site you agree to and accept our user agreement. If you havent read the user agreement please do so here