rarbg torrents
Catalog Top 10

Home
Movies
XXX
TV Shows
Games
Music
Anime
Apps
Doc
Other
Non XXX

Run (2020) 1080p WEB-DL x264 English AC3 5.1 - MeGUiL

Torrent: Run (2020) 1080p WEB-DL x264 English AC3 5.1 - MeGUiL
VPN:
Downloading torrents is getting riskier every day. Use a VPN to make yourself hidden while downloading torrents.
By using a VPN , your ISP and Government Agencies will not be able to spy on you, neither would they be able to track your online activity!
Poster:
Run (2020) 1080p WEB-DL x264 English AC3 5.1 - MeGUiL
Others:
Codec Name S. L. Size

 

Description:



Release Title
Run (2020) 1080p WEB-DL x264 English AC3 5.1 - MeGUiL



IMDB Link
https://www.imdb.com/title/tt8633478/

IMDb Rating
6.7/10 (7,884 user)

Screens:
Click to enlarge
















Code:

Media Info
General
Format : Matroska
Format version : Version 4
File size : 2.35 GiB
Duration : 1 h 29 min
Overall bit rate : 3 765 kb/s
Movie name : Run (2020) 1080p WEB-DL x264 English AC3 5.1 - MeGUiL
Encoded date : UTC 2020-11-27 03:26:21
Writing application : mkvmerge v7.7.0 ('Six Voices') 64bit built on Feb 28 2015 23:39:33
Writing library : libebml v1.3.1 + libmatroska v1.4.2

Video
ID : 1
Format : AVC
Format/Info : Advanced Video Codec
Format profile : [email protected]
Format settings : CABAC / 4 Ref Frames
Format settings, CABAC : Yes
Format settings, Reference frames : 4 frames
Codec ID : V_MPEG4/ISO/AVC
Duration : 1 h 29 min
Bit rate : 3 507 kb/s
Width : 1 920 pixels
Height : 1 080 pixels
Display aspect ratio : 16:9
Frame rate mode : Constant
Frame rate : 23.976 (24000/1001) FPS
Color space : YUV
Chroma subsampling : 4:2:0
Bit depth : 8 bits
Scan type : Progressive
Bits/(Pixel*Frame) : 0.071
Stream size : 2.19 GiB (93%)
Title : Run (2020) 1080p WEB-DL x264 English AC3 5.1 - MeGUiL
Default : Yes
Forced : No

Audio
ID : 2
Format : E-AC-3
Format/Info : Enhanced AC-3
Commercial name : Dolby Digital Plus
Codec ID : A_EAC3
Duration : 1 h 29 min
Bit rate mode : Constant
Bit rate : 256 kb/s
Channel(s) : 6 channels
Channel layout : L R C LFE Ls Rs
Sampling rate : 48.0 kHz
Frame rate : 31.250 FPS (1536 SPF)
Compression mode : Lossy
Stream size : 164 MiB (7%)
Title : English AC3 256 kbps 5.1 - MeGUiL
Language : English
Service kind : Complete Main
Default : Yes
Forced : No

Text
ID : 3
Format : UTF-8
Codec ID : S_TEXT/UTF8
Codec ID/Info : UTF-8 Plain Text
Duration : 1 h 25 min
Bit rate : 35 b/s
Count of elements : 834
Stream size : 22.0 KiB (0%)
Title : SDH
Language : English
Default : No
Forced : No

Downloads: 1139
Category: Movies/HD
Size: 2.4 GB
Show Files »
files
Added: 2020-11-28 11:38:52
Language: English
Title: Run
Rating: 77
Genres: HorrorMysteryThriller
Year: 2020
Summery: Chloe, a teenager who is confined to a wheelchair, is homeschooled by her mother, Diane. Chloe soon becomes suspicious of her mother and begins to suspect that she may be harboring a dark secret.
Peers: Seeders : 76 , Leechers : 20
Tags: MeGUiL Movie 1080p x264 
Release name: Run (2020) 1080p WEB-DL x264 English AC3 5.1 - MeGUiL
Trackers:

udp://tracker.opentrackr.org:1337/announce

http://tracker.foreverpirates.co:80/announce

udp://46.148.18.250:2710

udp://opentor.org:2710

udp://exodus.desync.com:6969/announce

udp://open.stealth.si:80/announce

udp://tracker.cyberia.is:6969/announce

http://tracker.dler.org:6969/announce

udp://tracker.leechers-paradise.org:6969/announce

udp://tracker.moeking.me:6969/announce

udp://tracker.tiny-vps.com:6969/announce

udp://tracker.torrent.eu.org:451/announce

udp://inferno.demonoid.is:3391/announce





By using this site you agree to and accept our user agreement. If you havent read the user agreement please do so here